Киберпапа [1 сезон: 1-17 серии из 17] (2024) WEB-DL 1080p от Files-x

Reply to topic
 
Author Message

bond74 ®

Gender: Male

Longevity: 5 years 6 months

Posts: 2395

Post 09-Apr-2024 07:18

[Quote]

Киберпапа
Год выпуска: 2024
Жанр: Комедия, фантастика
Выпущено: Россия, ТНТ, PREMIER, 1-2-3 Production, Monumental Vision
Режиссер: Эдуард Бордуков, Владимир Болгов
В ролях: Александр Робак, Юлия Пересильд, Тимофей Кочнев, Виктор Васильев (III), Ева Данилко, Маргарита Аброськина, Анастасия Дятлова, Алексей Симонов, Максим Сапрыкин, Фотис Келепурис, Жаргал Бадмацыренов, Владимир Барташевич, Анна Антонова, Иван Бычков (III), Сергей Калашник, Александра Прокофьева, Николай Журавлев (III)
О фильме: Профессионального сварщика Игната из-за нелепого случая увольняют с завода. Поскольку его жена Марина теряет все семейные сбережения в финансовой пирамиде, работяге приходится искать альтернативные источники заработка. Пасынок Саня предлагает отчиму участвовать в турнире по киберспорту с призом в два миллиона рублей...

Качество: WEB-DL 1080p
Видео: MPEG-4 AVC, ~ 5000 Кбит/с, 1920x1080, 25 кадр/с
Аудио:Русский (AC3, 2 ch, 256 Кбит/с), (E-AC3, 2 ch, 256 Кбит/с)
Продолжительность: 2 х 00:22:30
Перевод: Не требуется
Субтитры: Нет

Скриншоты



MediaInfo

General
Complete name : C:\films\Киберпапа.2024.WEB-DLRip.Files-x\01. Киберпапа.2024.WEB-DLRip.Files-x.avi
Format : AVI
Format/Info : Audio Video Interleave
Format settings : BitmapInfoHeader / WaveFormatEx
File size : 289 MiB
Duration : 22 min 57 s
Overall bit rate : 1 761 kb/s
Frame rate : 25.000 FPS
Writing application : VirtualDubMod 1.5.10.3 | www.virtualdub-fr.org || (build 2550/release)
Writing library : VirtualDubMod build 2550/release
Video
ID : 0
Format : MPEG-4 Visual
Format profile : Advanced Simple@L5
Format settings : BVOP1 / Custom Matrix
Format settings, BVOP : 1
Format settings, QPel : No
Format settings, GMC : No warppoints
Format settings, Matrix : Custom
Codec ID : XVID
Codec ID/Hint : XviD
Duration : 22 min 57 s
Bit rate : 1 559 kb/s
Width : 720 pixels
Height : 400 pixels
Display aspect ratio : 16:9
Frame rate : 25.000 FPS
Color space : YUV
Chroma subsampling : 4:2:0
Bit depth : 8 bits
Scan type : Progressive
Compression mode : Lossy
Bits/(Pixel*Frame) : 0.217
Stream size : 256 MiB (89%)
Writing library : XviD 73
Audio
ID : 1
Format : AC-3
Format/Info : Audio Coding 3
Commercial name : Dolby Digital
Codec ID : 2000
Duration : 22 min 57 s
Bit rate mode : Constant
Bit rate : 192 kb/s
Channel(s) : 2 channels
Channel layout : L R
Sampling rate : 48.0 kHz
Frame rate : 31.250 FPS (1536 SPF)
Compression mode : Lossy
Stream size : 31.5 MiB (11%)
Alignment : Split across interleaves
Interleave, duration : 40 ms (1.00 video frame)
Interleave, preload duration : 500 ms
Service kind : Complete Main

Раздача ведётся путём добавления новых серий

Внимание! Раздача ведётся путём добавления новых серий; при каждом добавлении создаётся новый торрент.
Чтобы начать докачку новой серии, пользователям необходимо сделать следующее:
1. Остановить скачивание;
2. Удалить старый торрент у себя из клиента (старые серии удалять не надо);
3. Скачать новый торрент и запустить его у себя в клиенте вместо старого, при этом указать клиенту путь в старую папку куда и должно происходить скачивание новых серий. Ваш клиент при этом должен произвести хеширование (проверку) старой папки и будет докачивать только те серии, которых у вас ещё нет. Старые серии при этом не удаляются, а продолжают раздаваться! Eсли вы уже удалили старые серии, то предотвратить повторную закачку старых серий можно, отжав галочку в соответствующих местах при запуске нового торрента.
Релиз от:

Release was prepared by RG Files-x

[Profile] [PM]
Display posts:    
Reply to topic

Current time is: 20-May 17:33

All times are UTC + 3



You cannot post new topics in this forum
You cannot reply to topics in this forum
You cannot edit your posts in this forum
You cannot delete your posts in this forum
You cannot vote in polls in this forum
You cannot attach files in this forum
You cannot download files in this forum