Выжившие: Дед [2 сезон: 1-10 серии из 10] (2024) WEBRip-AVC от Generalfilm | КПК

Reply to topic
 
Author Message

GORGIK ®

Gender: Male

Longevity: 5 years 6 months

Posts: 1528

Location: СССР

Post 18-Apr-2024 09:53

[Quote]

Выжившие: Дед Год выпуска: 2024
Жанр: Драма
Выпущено: Россия, Кинокомпания "Okko Studios"
Режиссер: Евгений Емелин
В ролях: Анатолий Дубанов, Виктор Яковлев, Таисия Котова, Андрей Шарыпов, Иван Тарабукин, Александр Сударев, Сергей Дьячковский
О фильме: В новом мире, где людям нельзя спать больше двух часов, каждый выживает как может, а вооруженные банды творят полное беззаконие. Одним из самых ценных товаров стали «спящие» — люди, которые заснули, но остаются живыми. В глухой степи живет одинокий дед Иван, у которого украли внучку Анну, чтобы сделать ее таким товаром. Старик практически ни с кем не общается и в своей покосившейся избушке пытается создать лекарство, которой разбудит тех, кто уснул навсегда. Однажды, выменивая у новых бандитов еду, он замечает среди «спящих» девочку, очень похожую на пропавшую Анну.

Качество: WEBRip-AVC
Видео: MPEG-4 AVC (x264), 640x272, ~ 500 kbps, 25.000 fps
Аудио: AAC LC, 48.0 KHz, 2 ch, 128 Kbps
Продолжительность: 9 х ~ 00:10:00
Перевод: Не требуется [Русский]
Cубтитры: нет

Скриншоты


Внимание! Смотрим спин-оффы в такой последовательности!

Выжившие 1 сезон 2021 год
Выжившие. Пробуждение 2 сезон 2024 год
спин-офф:
01.Выжившие. 3200 км
02.Выжившие. Благие намерения
03.Выжившие. БЛОГГГЕР
04.Выжившие. Огни
05.Выжившие. Подростки
06.Выжившие. Сено
07.Выжившие. Яна
08.Выжившие. Иона
09.Выжившие. Смертельный номер Добавил в S02 e00
10.Выжившие. Беременная
11.Выжившие. Круги
12.Выжившие. Дед
13.Выжившие. Патруль
14.Выжившие. Допрос

MediaInfo

Complete name : D:\кино\12.Vyzhivshie.Ded.S02.2024.WEBRip-AVC.KPK.GF\Vyzhivshie.Ded.s02e01.2024.WEBRip-AVC.KPK.GF.mp4
Format : MPEG-4
Codec ID : M4V (isom/iso2/avc1)
File size : 46.3 MiB
Duration : 10mn 14s
Overall bit rate mode : Variable
Overall bit rate : 632 Kbps
Writing application : Lavf53.19.0
Video
ID : 1
Format : AVC
Format/Info : Advanced Video Codec
Format profile : High@L4.1
Format settings, CABAC : Yes
Format settings, ReFrames : 8 frames
Codec ID : avc1
Codec ID/Info : Advanced Video Coding
Duration : 10mn 13s
Bit rate : 500 Kbps
Width : 640 pixels
Height : 272 pixels
Display aspect ratio : 2.35:1
Frame rate mode : Constant
Frame rate : 25.000 fps
Color space : YUV
Chroma subsampling : 4:2:0
Bit depth : 8 bits
Scan type : Progressive
Bits/(Pixel*Frame) : 0.115
Stream size : 36.5 MiB (79%)
Writing library : x264 core 146 r2538 121396c
Encoding settings : cabac=1 / ref=8 / deblock=1:-1:-1 / analyse=0x3:0x133 / me=umh / subme=10 / psy=1 / psy_rd=1.00:0.00 / mixed_ref=1 / me_range=24 / chroma_me=1 / trellis=2 / 8x8dct=1 / cqm=0 / deadzone=21,11 / fast_pskip=1 / chroma_qp_offset=-2 / threads=3 / lookahead_threads=1 / sliced_threads=0 / nr=0 / decimate=1 / interlaced=0 / bluray_compat=0 / constrained_intra=0 / bframes=8 / b_pyramid=2 / b_adapt=2 / b_bias=0 / direct=3 / weightb=1 / open_gop=0 / weightp=2 / keyint=250 / keyint_min=126 / scenecut=40 / intra_refresh=0 / rc_lookahead=40 / rc=2pass / mbtree=1 / bitrate=500 / ratetol=1.0 / qcomp=0.60 / qpmin=0 / qpmax=69 / qpstep=4 / cplxblur=20.0 / qblur=0.5 / ip_ratio=1.40 / aq=1:1.00
Menus : 3
Audio
ID : 2
Format : AAC
Format/Info : Advanced Audio Codec
Format profile : LC
Codec ID : 40
Duration : 10mn 14s
Bit rate mode : Variable
Bit rate : 128 Kbps
Channel(s) : 2 channels
Channel positions : Front: L R
Sampling rate : 48.0 KHz
Frame rate : 46.875 fps (1024 spf)
Compression mode : Lossy
Stream size : 9.32 MiB (20%)
Default : Yes
Alternate group : 1
Menus : 3
Релиз от:
[Profile] [PM]
Display posts:    
Reply to topic

Current time is: 20-May 19:23

All times are UTC + 3



You cannot post new topics in this forum
You cannot reply to topics in this forum
You cannot edit your posts in this forum
You cannot delete your posts in this forum
You cannot vote in polls in this forum
You cannot attach files in this forum
You cannot download files in this forum